[大陆][电视剧][披荆斩棘的大小姐][2024][全24集][国语外挂繁中][MP4][H264][1080P][共38.96G][无水印][LINETV][禁转] [百度网盘]

[复制链接]
2024-4-30 11:37:13   337    3 |阅读模式


◎译  名 披荆斩棘的大小姐
◎片  名 披荆斩棘的大小姐
◎年  代 2024
◎产  地 中国大陆
◎类  别 剧情 / 爱情 / 古装
◎语  言 汉语普通话
◎上映日期 2024-04-26(中国大陆)
◎豆瓣链接 https://movie.douban.com/subject/36317422/
◎集  数 24
◎导  演 李宏宇 / Wang Yu Lee
◎演  员 徐璐 / Lu Xu
      魏哲鸣 / Zheming Wei
      刘些宁 / Sally
      吴崇轩 / Chongxuan Wu
      程金铭 / Jinming Cheng
      杨舒亦 / YiYi | 饰 罗霜霜
      邓靖弘 / Jinghong Deng
◎编  剧 刘晶 / Jing Liu
      刘紫坤 / Zikun Liu
      风葙 / Xiang Feng
      代钰 / Yu Dai

◎简  介 

  温婉恬静的罗家大小姐罗爱莲,因突如其来的灾难,一夜间失去了一切,从人间富贵花被打入泥潭。经历重重困境,最终经历过九死一生的罗爱莲凤凰涅槃成为能文能武的镖局大小姐沈丹青(徐璐 饰),从此浴火重生,踏上手撕仇人的荆棘之路,开启了她的别样人生。沈丹青在复仇的过程中意外闯入了寻找丢失宝藏的徐将军(魏哲鸣 饰)视野,引起他的怀疑,这使沈丹青的这条复仇之路更加跌宕起伏、与众不同,两人在一次次惊心动魄的斗智斗勇中,相互成全,惺惺相惜,发生了一系列扣人心弦的故事。
  1. General
  2. Complete name                  : D:\披荆斩棘的大小姐\01.mp4
  3. Format                         : MPEG-4
  4. Format profile                 : Base Media
  5. Codec ID                       : isom (isom/iso2/avc1/mp41)
  6. File size                      : 1.18 GiB
  7. Duration                       : 37 min 36 s
  8. Overall bit rate mode          : Variable
  9. Overall bit rate               : 4 493 kb/s
  10. Frame rate                     : 25.000 FPS
  11. Writing application            : Lavf58.32.104

  12. Video
  13. ID                             : 1
  14. Format                         : AVC
  15. Format/Info                    : Advanced Video Codec
  16. Format profile                 : High@L4
  17. Format settings                : CABAC / 3 Ref Frames
  18. Format settings, CABAC         : Yes
  19. Format settings, Reference fra : 3 frames
  20. Codec ID                       : avc1
  21. Codec ID/Info                  : Advanced Video Coding
  22. Duration                       : 37 min 36 s
  23. Bit rate mode                  : Variable
  24. Bit rate                       : 4 362 kb/s
  25. Maximum bit rate               : 9 000 kb/s
  26. Width                          : 1 920 pixels
  27. Height                         : 1 080 pixels
  28. Display aspect ratio           : 16:9
  29. Original display aspect ratio  : 16:9
  30. Frame rate mode                : Constant
  31. Frame rate                     : 25.000 FPS
  32. Color space                    : YUV
  33. Chroma subsampling             : 4:2:0
  34. Bit depth                      : 8 bits
  35. Scan type                      : Progressive
  36. Bits/(Pixel*Frame)             : 0.084
  37. Stream size                    : 1.15 GiB (97%)
  38. Codec configuration box        : avcC

  39. Audio
  40. ID                             : 2
  41. Format                         : AAC LC
  42. Format/Info                    : Advanced Audio Codec Low Complexity
  43. Codec ID                       : mp4a-40-2
  44. Duration                       : 37 min 36 s
  45. Bit rate mode                  : Variable
  46. Bit rate                       : 125 kb/s
  47. Maximum bit rate               : 133 kb/s
  48. Channel(s)                     : 2 channels
  49. Channel layout                 : L R
  50. Sampling rate                  : 48.0 kHz
  51. Frame rate                     : 46.875 FPS (1024 SPF)
  52. Compression mode               : Lossy
  53. Stream size                    : 33.7 MiB (3%)
  54. Default                        : Yes
  55. Alternate group                : 1
复制代码








链接:https://pan.baidu.com/s/1zMCAf1tKKTU3ZpI4svF17Q

购买主题 已有 7 人购买  本主题需向作者支付 10 CY币 才能浏览
啊啊啊    2024-5-24 21:42:44
老师 片源的第七集是第六集 没有第七集
qhzwsrj    2024-5-25 03:27:25
啊啊啊 发表于 2024-5-24 21:42
老师 片源的第七集是第六集 没有第七集

已替换
紫银    2024-6-14 23:13:26
楼主发贴辛苦了,谢谢楼主分享!
1.资源板块发帖标题有严格的要求,详情见:https://www.caiyawang.com/thread-2642-1-1.html

2.收费贴必须把除了提取码和压缩密码之外的所有信息设置为免费信息,免费信息指的是,其他用户不需要购买就可以看到的那部分内容,包括链接,方便用户购买前检验链接的有效性。

3.帖子设置了隐藏内容,需要回复可见,那么就不要设置收费。如果设置了收费,那么就不要再设置隐藏内容。
您需要登录后才可以回帖   登录 立即注册

高级模式

手机版|菜牙网

Powered by Discuz! X3.4 © Comsenz Inc.