[大陆][电视剧][大唐狄公案][2024][全32集][国语无字内封简繁][MKV][H264][1080P][共9.2G][无水印][禁转] [其他网盘]

[复制链接]
2024-2-11 20:07:04   855    10 |阅读模式

请勿转载至其他论坛!!!!


◎译  名 Judge Dee's Mystery / Judge Dee‘s Mystery
◎片  名 大唐狄公案
◎年  代 2024
◎产  地 中国大陆
◎类  别 悬疑 / 古装
◎语  言 汉语普通话
◎上映日期 2024-02-06(中国大陆)
◎IMDb评星  ★★★★★★★✦☆☆
◎IMDb评分  7.4/10 from 7 users
◎IMDb链接  https://www.imdb.com/title/tt29363748/
◎豆瓣链接 https://movie.douban.com/subject/35459025/
◎单集片长 45分钟
◎集  数 32
◎导  演 李云亮 / Yunliang Li
◎演  员 周一围 / Yiwei Zhou | 饰 狄仁杰
      王丽坤 / Likun Wang | 饰 曹安
      钟楚曦 / Elane Zhong | 饰 皇后
      张嘉益 / Jiayi Zhang | 饰 魏无疾
      张若昀 / Ruoyun Zhang | 饰 刁小官
      尤勇智 / Yongzhi You | 饰 洪亮
      姬他 / Ta Ji | 饰 乔泰
      凌孜 / Ling Zi | 饰 马荣
      李晨 / Chen Li | 饰 侯愈
      李乃文 / Naiwen Li | 饰 李淼
      刘端端 / Duanduan Liu
      克拉拉 / Clara Lee | 饰 玉素
      杨雪 / Xue Yang | 饰 莺儿
      陈都灵 / Duling Chen | 饰 秋月
      衣珊 / Shan Yi
      王劲松 / Jinsong Wang
      余皑磊 / Ailei Yu
      蒋毅 / Yi Jiang
      张晞临 / Xilin Zhang
      印小天 / Xiaotian Yin | 饰 滕坎
      王茂蕾 / Maolei Wang
      言杰 / Jie Yan
      何中华 / Zhonghua He
      王梓权 / Kaavie Wong
      吴嵩 / Song Wu
      秦杉 / Shan Qin
      赵雷棋 / Leiqi Zhao
      冯兵 / Bing Feng
      杨明娜 / Minna Yang
      任舒悦 / Shuyue Ren
      李洋 / Yang Li
      陈宝国 / Baoguo Chen
      林家川 / Jiachuan Lin | 饰 易潘
      杨皓宇 / Haoyu Yang
      康杰 / Jie Kang
      栾元晖 / Yuanhui Luan
      翟小兴 / Xiaoxing Zhai
      周铁 / Tie Zhou
      杨帆 / Fan Yang
      姚卓君 / Zhuojun Yao
      肖龙 / Long Xiao
      牛子藩 / Zifan Niu
      牛飘 / Piao Niu
      王双宝 / Shuangbao Wang
      贾梓 / Zi Jia
      郭晓小 / Xiaoxiao Guo
      李慕羽
      袁墨凡 / Mofan Yuan | 饰 周长义
      马千壹 / Qianyi Ma
      姜峰 / Feng Jiang
      周小飞 / Xiaofei Zhou
      张一杰 / Yijie Zhang | 饰 萧校尉
      张佳航 / Jiahang Zhang
      吴旗 / Qi Wu
      闫勤 / Qin Yan
      郑伟 / Wei Zheng
      周俞辰 / Yuchen Zhou
      许京川 / Jingchuan Xu
      史艳 / Yan Shi
      刘伟明 / Weiming Liu
      曹曦文 / Xiwen Cao | 饰 骆夫人
      董璇 / Xuan Dong | 饰 玉兰
      张子健 / Zijian Zhang | 饰 贺毅
      萨顶顶 / Dingding Sa
      肖添仁 / Tianren Xiao | 饰 童年狄仁杰
      牛超 / Chao Niu
      王雅薇 / Yawei Wang | 饰 阿香
◎编  剧 京榆 / Yu Jing
      吉姆·基布尔
      杜迪·阿普尔顿
      高罗佩 / Robert van Gulik
◎制  片  人 咸凯 / Kai Xian
      任双有 / Shuangyou Ren

◎简  介 

  大唐初年,象征皇后权力的凤印丢失,并引发矫诏杀害当朝官员的事件, “凤印案”引起朝中异动,守旧派面上无恙,暗地加紧了串联密谋。而赶考科举的狄仁杰(周一围 饰),正逢此时无意中卷入一桩离奇的杀人案。
  本剧由狄仁杰查案发现杀人案与凤印丢失事件暗合开始,通过讲述狄仁杰履职各地屡破奇案,惩治贪官、护海防、肃黑恶、申律法、助民安,同时得以勘破自己身世之谜的故事讲述,展现了狄仁杰知行合一的人生信条。

优酷1080画质懂的都懂,介意勿买!!


[Shell] 纯文本查看 复制代码
General
Unique ID                      : 21779682862110376553141284930936601254 (0x10629D45689323E82C999795D89B7AA6)
Complete name                  : D:\大唐狄公案\大唐狄公案.Judge.Dee's.Mystery.S01E05.2024.1080P.WEB-DL.H264.AAC.mkv
Format                         : Matroska
Format version                 : Version 4
File size                      : 324 MiB
Duration                       : 41 min 31 s
Overall bit rate               : 1 089 kb/s
Frame rate                     : 25.000 FPS
Encoded date                   : 2024-02-11 11:19:49 UTC
Writing application            : mkvmerge v81.0 ('Milliontown') 64-bit
Writing library                : libebml v1.4.4 + libmatroska v1.7.1 / Lavf58.32.104

Video
ID                             : 1
Format                         : AVC
Format/Info                    : Advanced Video Codec
Format profile                 : High@L5
Format settings                : CABAC / 5 Ref Frames
Format settings, CABAC         : Yes
Format settings, Reference fra : 5 frames
Codec ID                       : V_MPEG4/ISO/AVC
Duration                       : 41 min 31 s
Bit rate                       : 991 kb/s
Width                          : 1 920 pixels
Height                         : 1 080 pixels
Display aspect ratio           : 16:9
Frame rate mode                : Constant
Frame rate                     : 25.000 FPS
Color space                    : YUV
Chroma subsampling             : 4:2:0
Bit depth                      : 8 bits
Scan type                      : Progressive
Bits/(Pixel*Frame)             : 0.019
Stream size                    : 294 MiB (91%)
Default                        : Yes
Forced                         : No
Color range                    : Limited
Color primaries                : BT.709
Transfer characteristics       : BT.709
Matrix coefficients            : BT.709

Audio
ID                             : 2
Format                         : AAC LC
Format/Info                    : Advanced Audio Codec Low Complexity
Codec ID                       : A_AAC-2
Duration                       : 41 min 31 s
Bit rate                       : 96.0 kb/s
Channel(s)                     : 2 channels
Channel layout                 : L R
Sampling rate                  : 44.1 kHz
Frame rate                     : 43.066 FPS (1024 SPF)
Compression mode               : Lossy
Stream size                    : 28.5 MiB (9%)
Default                        : Yes
Forced                         : No

Text #1
ID                             : 3
Format                         : UTF-8
Codec ID                       : S_TEXT/UTF8
Codec ID/Info                  : UTF-8 Plain Text
Duration                       : 36 min 40 s
Bit rate                       : 38 b/s
Frame rate                     : 0.305 FPS
Count of elements              : 671
Stream size                    : 10.3 KiB (0%)
Title                          : 简体中文
Language                       : Chinese (Simplified)
Default                        : Yes
Forced                         : No

Text #2
ID                             : 4
Format                         : UTF-8
Codec ID                       : S_TEXT/UTF8
Codec ID/Info                  : UTF-8 Plain Text
Duration                       : 36 min 40 s
Bit rate                       : 38 b/s
Frame rate                     : 0.305 FPS
Count of elements              : 671
Stream size                    : 10.3 KiB (0%)
Title                          : 繁体中文
Language                       : Chinese (Traditional)
Default                        : No
Forced                         : No

阿里云
百度云

购买主题 已有 24 人购买  本主题需向作者支付 10 CY币 才能浏览
jackywoo    2024-2-12 10:17:32
不错,又占了一个沙发!
梅寄且且迟    2024-2-13 00:35:48 [此消息来自手机]
谢谢!来砍陈嘟嘟咯!
igefcufppt    2024-2-15 21:10:36
看帖看完了至少要顶一下,还可以加入到收藏哦!
Meggieyu08    2024-2-15 22:08:01
求更!!
沈京头上开fafa    2024-2-16 02:27:08 [此消息来自手机]
感谢分享!看过这个,很喜欢!
xiaoqi1372008    2024-2-21 22:26:46
感谢了!!!
userresu    2024-3-2 10:05:43
百度网盘缺第30集,求楼主补一下。
18020233592    2024-3-2 15:21:34
userresu 发表于 2024-3-2 10:05
百度网盘缺第30集,求楼主补一下。

已上传!!
userresu    2024-3-2 15:35:57 [此消息来自手机]
谢谢楼主大大!辛苦了!
12下一页
1.资源板块发帖标题有严格的要求,详情见:https://www.caiyawang.com/thread-2642-1-1.html

2.收费贴必须把除了提取码和压缩密码之外的所有信息设置为免费信息,免费信息指的是,其他用户不需要购买就可以看到的那部分内容,包括链接,方便用户购买前检验链接的有效性。

3.帖子设置了隐藏内容,需要回复可见,那么就不要设置收费。如果设置了收费,那么就不要再设置隐藏内容。
您需要登录后才可以回帖   登录 立即注册

高级模式

Powered by Discuz! X3.4 © Comsenz Inc.