[大陆][电视剧][101次抢婚][2023][全24集][国语中字][MP4][H265][60FPS][4K][共27.4G][无水印][AZTNN] [其他网盘]

[复制链接]
2023-6-1 20:58:29   647    1 |阅读模式




◎译  名 爱你,是我的地老天荒
◎片  名 101次抢婚
◎年  代 2023
◎产  地 中国大陆
◎类  别 剧情
◎语  言 汉语普通话
◎上映日期 2023-03-17(中国大陆)
◎豆瓣评分 4.3/10 from 883 users
◎豆瓣链接 https://movie.douban.com/subject/35684037
◎集  数 24
◎导  演 王子鸣 Tsz Ming Wong
◎主  演 金泽    Garvey
       陈姝君 Shujun Chen
       丰楚轩 Chuxuan Feng
       刘德熙 Dexi Liu
       李佳怡 Jiayi Li
       吴骏超 Junchao Wu
       杨诗倩 Shiqian Yang
       李菁    Jing Li
       常喆宽 Zhekuan Chang
       白凯瑞 Kairui Bai

◎简  介
  2020年初冬,在盛世集团旗下的一所酒店里,举办了盛世和顾阑珊的结婚周年宴会。在看似恩爱的面具下,掩藏着两人伤痕累累的心。盛世从高中开始,就喜欢上了顾阑珊,而顾阑珊却在大学喜欢上了韩城池。自信骄傲的盛世不接受这个事实,在一次聚会上,故意将别人下了药的酒让顾阑珊喝下,顺理成章让顾阑珊成为了他的女人。随后又和顾阑珊的养母谈了一个合适的聘金,让顾阑珊嫁她为妻。顾阑珊得知了盛世的一切手段,认为他背叛了两人的友情,结婚当天在弟弟的带领下试图逃婚,没想到弟弟车祸成为植物人。面对抢救弟弟高昂的医药费,顾阑珊求盛世帮忙,盛世却以救她弟弟为筹码要挟她立刻和他领证。那时的他认为,爱就是拥有。盛世如愿以偿,顾阑珊心死如灰。两个不懂爱的人走进婚姻,注定不幸。一个想靠近,一个想逃离,总让对方伤痕累累。最终盛世终于明白,爱,不是拥有,而是放手让对方自由。婚姻走向灭亡,两人却宛如新生,逐渐懂得了如何去爱。

  1. General
  2. Complete name                  : H:\Marriage\Marriage.2023.E01.2160P.WEB-DL.H265.AAC.mp4
  3. Format                         : MPEG-4
  4. Format profile                 : Base Media
  5. Codec ID                       : isom (isom/iso2/mp41)
  6. File size                      : 1.14 GiB
  7. Duration                       : 33 min 28 s
  8. Overall bit rate               : 4 868 kb/s
  9. Writing application            : Lavf58.35.100

  10. Video
  11. ID                             : 1
  12. Format                         : HEVC
  13. Format/Info                    : High Efficiency Video Coding
  14. Format profile                 : Main@L5.1@Main
  15. Codec ID                       : hev1
  16. Codec ID/Info                  : High Efficiency Video Coding
  17. Duration                       : 33 min 28 s
  18. Bit rate                       : 4 663 kb/s
  19. Width                          : 3 840 pixels
  20. Height                         : 2 160 pixels
  21. Display aspect ratio           : 16:9
  22. Frame rate mode                : Constant
  23. Frame rate                     : 60.000 FPS
  24. Color space                    : YUV
  25. Chroma subsampling             : 4:2:0
  26. Bit depth                      : 8 bits
  27. Bits/(Pixel*Frame)             : 0.009
  28. Stream size                    : 1.09 GiB (96%)
  29. Color range                    : Limited
  30. Color primaries                : BT.709
  31. Transfer characteristics       : BT.709
  32. Matrix coefficients            : BT.709
  33. Codec configuration box        : hvcC

  34. Audio
  35. ID                             : 2
  36. Format                         : AAC LC
  37. Format/Info                    : Advanced Audio Codec Low Complexity
  38. Codec ID                       : mp4a-40-2
  39. Duration                       : 33 min 28 s
  40. Bit rate mode                  : Constant
  41. Bit rate                       : 192 kb/s
  42. Channel(s)                     : 2 channels
  43. Channel layout                 : L R
  44. Sampling rate                  : 44.1 kHz
  45. Frame rate                     : 43.066 FPS (1024 SPF)
  46. Compression mode               : Lossy
  47. Stream size                    : 46.0 MiB (4%)
  48. Default                        : Yes
  49. Alternate group                : 1
复制代码






https://pan.xunlei.com/s/VNWqyGuGwQ4UZLI95fqgOgSIA1#

购买主题 已有 4 人购买  本主题需向作者支付 8 CY币 才能浏览
samhr    2023-6-4 07:27:48
请问有度盘吗?
1.资源板块发帖标题有严格的要求,详情见:https://www.caiyawang.com/thread-2642-1-1.html

2.收费贴必须把除了提取码和压缩密码之外的所有信息设置为免费信息,免费信息指的是,其他用户不需要购买就可以看到的那部分内容,包括链接,方便用户购买前检验链接的有效性。

3.帖子设置了隐藏内容,需要回复可见,那么就不要设置收费。如果设置了收费,那么就不要再设置隐藏内容。
您需要登录后才可以回帖   登录 立即注册

高级模式

手机版|菜牙网

Powered by Discuz! X3.4 © Comsenz Inc.